Login or Register

NFO File

For Avengers.Endgame.2019.Digital.Extras.720p.AMZN.WEB-DL.DDP5.1.H.264-NTG

General
Unique ID                                : 122358519175833613487382593071119382102 (0x5C0D64C32D436E6E9AA5D74FBEF4B656)
Complete name                            : Avengers.Endgame.2019.Digital.Extras.720p.AMZN.WEB-DL.DDP5.1.H.264-NTG.mkv
Format                                   : Matroska
Format version                           : Version 4
File size                                : 2.55 GiB
Duration                                 : 1 h 1 min
Overall bit rate                         : 5 931 kb/s
Encoded date                             : UTC 2019-07-30 10:34:43
Writing application                      : mkvmerge v21.0.0 ('Tardigrades Will Inherit The Earth') 64-bit
Writing library                          : libebml v1.3.5 + libmatroska v1.4.8

Video
ID                                       : 1
Format                                   : AVC
Format/Info                              : Advanced Video Codec
Format profile                           : [email protected]
Format settings                          : CABAC / 4 Ref Frames
Format settings, CABAC                   : Yes
Format settings, Reference frames        : 4 frames
Format settings, GOP                     : M=4, N=48
Codec ID                                 : V_MPEG4/ISO/AVC
Duration                                 : 1 h 1 min
Bit rate mode                            : Constant
Bit rate                                 : 5 672 kb/s
Nominal bit rate                         : 6 000 kb/s
Width                                    : 1 280 pixels
Height                                   : 720 pixels
Display aspect ratio                     : 16:9
Frame rate mode                          : Constant
Frame rate                               : 23.976 (24000/1001) FPS
Color space                              : YUV
Chroma subsampling                       : 4:2:0
Bit depth                                : 8 bits
Scan type                                : Progressive
Bits/(Pixel*Frame)                       : 0.257
Stream size                              : 2.44 GiB (96%)
Language                                 : English
Default                                  : Yes
Forced                                   : No
Color range                              : Limited
Color primaries                          : BT.709
Transfer characteristics                 : BT.709
Matrix coefficients                      : BT.709

Audio
ID                                       : 2
Format                                   : E-AC-3
Format/Info                              : Enhanced AC-3
Commercial name                          : Dolby Digital Plus
Codec ID                                 : A_EAC3
Duration                                 : 1 h 1 min
Bit rate mode                            : Constant
Bit rate                                 : 256 kb/s
Channel(s)                               : 6 channels
Channel layout                           : L R C LFE Ls Rs
Sampling rate                            : 48.0 kHz
Frame rate                               : 31.250 FPS (1536 SPF)
Compression mode                         : Lossy
Delay relative to video                  : 6 ms
Stream size                              : 113 MiB (4%)
Language                                 : English
Service kind                             : Complete Main
Default                                  : Yes
Forced                                   : No

Text #1
ID                                       : 3
Format                                   : UTF-8
Codec ID                                 : S_TEXT/UTF8
Codec ID/Info                            : UTF-8 Plain Text
Duration                                 : 1 h 1 min
Bit rate                                 : 112 b/s
Count of elements                        : 1267
Stream size                              : 50.6 KiB (0%)
Language                                 : English
Default                                  : No
Forced                                   : No

Text #2
ID                                       : 4
Format                                   : UTF-8
Codec ID                                 : S_TEXT/UTF8
Codec ID/Info                            : UTF-8 Plain Text
Duration                                 : 1 h 1 min
Bit rate                                 : 115 b/s
Count of elements                        : 1314
Stream size                              : 51.7 KiB (0%)
Title                                    : SDH
Language                                 : English
Default                                  : No
Forced                                   : No

Menu
00:00:00.000                             : en:End Credits
00:00:00.142                             : en:Featurettes
00:00:05.142                             : en:Remembering Stan Lee
00:07:20.142                             : en:Setting The Tone: Casting Robert Downey Jr.
00:12:45.142                             : en:A Man Out of Time: Creating Captain America
00:25:03.142                             : en:Black Widow: Whatever It Takes
00:32:28.142                             : en:The Russo Brothers: Journey to Endgame
00:37:29.142                             : en:The Women of the MCU
00:42:22.142                             : en:Bro Thor
00:46:04.142                             : en:Steve and Peggy: One Last Dance
00:51:58.142                             : en:Deleted Scenes
00:52:02.142                             : en:Goji Berries
00:52:39.142                             : en:Bombs on Board
00:53:08.142                             : en:Suckiest Army in the Galaxy
00:53:34.142                             : en:You Used to Frickin’ Live Here
00:54:43.142                             : en:Tony and Howard
00:55:11.142                             : en:Avengers Take a Knee
00:56:52.142                             : en:Gag Reel
00:58:54.142                             : en:Visionary Intro
01:01:27.142                             : en:Writer and Director Audio Commentary