Login or Register

NFO File

For High.Sierra.1941

High Sierra (1941)
https://www.imdb.com/title/tt0033717/

Bogart's first great role and great direction from Walsh 
makes this early noir a gangster masterpiece.

Source                                   : DVD

Format                                   : Matroska
Format version                           : Version 4
File size                                : 1.17 GiB
Duration                                 : 1 h 39 min
Overall bit rate                         : 1 679 kb/s
Writing application                      : mkvmerge v31.0.0 ('Dolores In A Shoestand') 64-bit
Writing library                          : libebml v1.3.6 + libmatroska v1.4.9

Video
ID                                       : 1
Format                                   : AVC
Format/Info                              : Advanced Video Codec
Format profile                           : [email protected]
Format settings                          : CABAC / 4 Ref Frames
Format settings, CABAC                   : Yes
Format settings, RefFrames               : 4 frames
Codec ID                                 : V_MPEG4/ISO/AVC
Duration                                 : 1 h 39 min
Bit rate                                 : 1 453 kb/s
Width                                    : 720 pixels
Height                                   : 480 pixels
Display aspect ratio                     : 4:3
Frame rate mode                          : Constant
Frame rate                               : 23.976 (24000/1001) FPS
Color space                              : YUV
Chroma subsampling                       : 4:2:0
Bit depth                                : 8 bits
Scan type                                : Progressive
Bits/(Pixel*Frame)                       : 0.175
Stream size                              : 1.01 GiB (87%)
Writing library                          : x264 core 120
Encoding settings                        : cabac=1 / ref=3 / deblock=1:-1:-1 / analyse=0x3:0x113 / me=hex / subme=7 / psy=1 / psy_rd=1.00:0.15 / mixed_ref=1 / me_range=16 / chroma_me=1 / trellis=1 / 8x8dct=1 / cqm=0 / deadzone=21,11 / fast_pskip=1 / chroma_qp_offset=-3 / threads=1 / sliced_threads=0 / nr=0 / decimate=1 / interlaced=0 / bluray_compat=0 / constrained_intra=0 / bframes=3 / b_pyramid=2 / b_adapt=2 / b_bias=0 / direct=1 / weightb=1 / open_gop=0 / weightp=2 / keyint=240 / keyint_min=24 / scenecut=40 / intra_refresh=0 / rc_lookahead=50 / rc=crf / mbtree=1 / crf=21.0 / qcomp=0.60 / qpmin=3 / qpmax=69 / qpstep=4 / ip_ratio=1.40 / aq=1:1.00
Language                                 : English
Default                                  : Yes
Forced                                   : No
Color range                              : Limited
Color primaries                          : BT.601 NTSC
Transfer characteristics                 : BT.709
Matrix coefficients                      : BT.601
Statistics Tags Issue                    : mkvmerge v31.0.0 ('Dolores In A Shoestand') 64-bit 2019-03-16 15:02:00 / mkvmerge v31.0.0 ('Dolores In A Shoestand') 64-bit 
FromStats_BitRate                        : 1484959
FromStats_Duration                       : 01:39:46.313000000
FromStats_FrameCount                     : 143528
FromStats_StreamSize                     : 1111179242

Audio
ID                                       : 2
Format                                   : AC-3
Format/Info                              : Audio Coding 3
Commercial name                          : Dolby Digital
Codec ID                                 : A_AC3
Duration                                 : 1 h 39 min
Bit rate mode                            : Constant
Bit rate                                 : 192 kb/s
Channel(s)                               : 1 channel
Channel layout                           : C
Sampling rate                            : 48.0 kHz
Frame rate                               : 31.250 FPS (1536 SPF)
Bit depth                                : 16 bits
Compression mode                         : Lossy
Stream size                              : 137 MiB (11%)
Language                                 : English
Service kind                             : Complete Main
Default                                  : Yes
Forced                                   : No
Statistics Tags Issue                    : mkvmerge v31.0.0 ('Dolores In A Shoestand') 64-bit 2019-03-16 15:02:00 / mkvmerge v31.0.0 ('Dolores In A Shoestand') 64-bit 
FromStats_BitRate                        : 192000
FromStats_Duration                       : 01:39:46.208000000
FromStats_FrameCount                     : 187069
FromStats_StreamSize                     : 143668992

Text
ID                                       : 3
Format                                   : UTF-8
Codec ID                                 : S_TEXT/UTF8
Codec ID/Info                            : UTF-8 Plain Text
Language                                 : English
Default                                  : Yes
Forced                                   : No
Statistics Tags Issue                    : mkvmerge v31.0.0 ('Dolores In A Shoestand') 64-bit 2019-03-16 15:02:00 / mkvmerge v31.0.0 ('Dolores In A Shoestand') 64-bit 
FromStats_BitRate                        : 71
FromStats_Duration                       : 01:36:46.062000000
FromStats_FrameCount                     : 1232
FromStats_StreamSize                     : 52224

Menu
00:00:00.000                             : Chapter 1
00:01:09.402                             : Chapter 2
00:06:25.093                             : Chapter 3
00:09:47.753                             : Chapter 4
00:13:36.148                             : Chapter 5
00:15:09.742                             : Chapter 6
00:19:27.374                             : Chapter 7
00:22:57.918                             : Chapter 8
00:25:47.045                             : Chapter 9
00:29:12.625                             : Chapter 10
00:34:38.367                             : Chapter 11
00:39:02.048                             : Chapter 12
00:44:06.727                             : Chapter 13
00:48:25.402                             : Chapter 14
00:54:07.661                             : Chapter 15
00:58:03.354                             : Chapter 16
01:02:36.794                             : Chapter 17
01:07:09.442                             : Chapter 18
01:12:14.872                             : Chapter 19
01:14:29.882                             : Chapter 20
01:20:46.383                             : Chapter 21
01:23:09.693                             : Chapter 22
01:28:15.832                             : Chapter 23
01:31:22.018                             : Chapter 24
01:33:44.827                             : Chapter 25
01:36:27.156                             : Chapter 26
01:38:56.472                             : Chapter 27