Login or Register

NFO File

For La.La.Land.2016.HDCAM.NEW-AUDIO.DE-WATERMARKED.700MB.x264-Cat

+-+-+-+-+-+-+-+-+-+-+-+-+-+-+-+-+-+-+-+-+-+-+-+-+-+-+-+-+-+-+-+-+-+-+-+-+-+-+-+-
|..............................................................................|
|..............................................................................|
|................CCCCCCCCCCCCC............................tttt.................|
|.............CCC::::::::::::C.........................ttt:::t.................|
|...........CC:::::::::::::::C.........................t:::::t.................|
|..........C:::::CCCCCCCC::::C.........................t:::::t.................|
|.........C:::::C.......CCCCCC...aaaaaaaaaaaaa...ttttttt:::::ttttttt...........|
|........C:::::C.................a::::::::::::a..t:::::::::::::::::t...........|
|........C:::::C.................aaaaaaaaa:::::a.t:::::::::::::::::t...........|
|........C:::::C..........................a::::a.tttttt:::::::tttttt...........|
|........C:::::C...................aaaaaaa:::::a.......t:::::t.................|
|........C:::::C.................aa::::::::::::a.......t:::::t.................|
|........C:::::C................a::::aaaa::::::a.......t:::::t.................|
|.........C:::::C.......CCCCCC.a::::a....a:::::a.......t:::::t....tttttt.......|
|..........C:::::CCCCCCCC::::C.a::::a....a:::::a.......t::::::tttt:::::t.......|
|...........CC:::::::::::::::C.a:::::aaaa::::::a.......tt::::::::::::::t.......|
|.............CCC::::::::::::C..a::::::::::aa:::a........tt:::::::::::tt.......|
|................CCCCCCCCCCCCC...aaaaaaaaaa..aaaa..........ttttttttttt.........|
|..............................................................................|
|.........................CRAFTY AUSTRALIAN TRANSCODERS........................|
|..........................Re-encoding TURD since 2016.........................|
|..............................................................................|
+-+-+-+-+-+-+-+-+-+-+-+-+-+-+-+-+-+-+-+-+-+-+-+-+-+-+-+-+-+-+-+-+-+-+-+-+-+-+-+-
**********La.La.Land.2016.HDCAM.NEW-AUDIO.UN-WATERMARKED.700MB.x264-Cat*********
---------------------------------RELEASE INFO-----------------------------------
TITLE : La La Land (2016)
IMDB : http://www.imdb.com/title/tt3783958
FILE : La.La.Land.2016.HDCAM.NEW-AUDIO.UN-WATERMARKED.700MB.x264-Cat.mp4
VIDEO FORMAT : x264 AVC [email protected]
AUDIO FORMAT : AAC 96kbps
RESOLUTION : 640 x 272
DURATION : 2 h 00 min
SIZE : 700MB

	SAMPLE INCLUDED

Note:
Got the ol' poo shine kit from NAKRO to polish up this CPG turd...
	- Removed the watermarks
	- Corrected coloring and levels (black is black again not green)
	- Added new audiosource which a little kangeroo brought me in a gift basket.

And don't y'all forget it now...
cat specializes in turd.. We go knee deep in turd just for your convenience!

CONTACT US @ [email protected]

----------------------------------SCREENSHOTS-----------------------------------
https://extraimage.net/images/2017/01/12/7041d98df6024d6b31d8782e94c4c5dc.jpg
https://extraimage.net/images/2017/01/12/6327c3d85c491d9eec6433f77756f510.jpg
-----------------------------------MEDIAINFO------------------------------------
Format                      : MPEG-4
Format profile              : Base Media
Codec ID                    : isom (isom/avc1)
File size                   : 699 MiB
Duration                    : 1 h 59 min
Overall bit rate mode       : Variable
Overall bit rate            : 817 kb/s
Encoded date                : UTC 2017-01-12 13:42:10
Tagged date                 : UTC 2017-01-12 13:42:10
Writing application         : My MP4Box GUI 0.6.0.6

Video
ID                          : 1
Format                      : AVC
Format/Info                 : Advanced Video Codec
Format profile              : [email protected]
Format settings, CABAC      : Yes
Format settings, ReFrames   : 8 frames
Codec ID                    : avc1
Codec ID/Info               : Advanced Video Coding
Duration                    : 1 h 59 min
Bit rate                    : 717 kb/s
Maximum bit rate            : 2 737 kb/s
Width                       : 640 pixels
Height                      : 272 pixels
Display aspect ratio        : 2.35:1
Frame rate mode             : Constant
Frame rate                  : 30.000 FPS
Color space                 : YUV
Chroma subsampling          : 4:2:0
Bit depth                   : 8 bits
Scan type                   : Progressive
Bits/(Pixel*Frame)          : 0.137
Stream size                 : 613 MiB (88%)
Title                       : 
	La.La.Land.2016.HDCAM.NEW-AUDIO.DE-WATERMARKED.700MB.x264-Cat.h264
Writing library             : x264 core 148 r2705 3f5ed56
Encoding settings           : cabac=1 / ref=8 / deblock=1:0:0 
	/ analyse=0x3:0x113 / me=umh / subme=9 / psy=1 / psy_rd=1.00:0.00 
	/ mixed_ref=1 / me_range=24 / chroma_me=1 / trellis=1 / 8x8dct=1 / cqm=0 
	/ deadzone=21,11 / fast_pskip=1 / chroma_qp_offset=-2 / threads=6 
	/ lookahead_threads=1 / sliced_threads=0 / nr=0 / decimate=1 / interlaced=0 
	/ bluray_compat=0 / constrained_intra=0 / bframes=5 / b_pyramid=2 
	/ b_adapt=2 / b_bias=0 / direct=3 / weightb=1 / open_gop=0 / weightp=2 
	/ keyint=300 / keyint_min=30 / scenecut=40 / intra_refresh=0 
	/ rc_lookahead=60 / rc=2pass / mbtree=1 / bitrate=717 / ratetol=1.0 
	/ qcomp=0.60 / qpmin=0 / qpmax=69 / qpstep=4 / cplxblur=20.0 / qblur=0.5 
	/ ip_ratio=1.40 / aq=2:1.00
Encoded date                : UTC 2017-01-12 13:42:10
Tagged date                 : UTC 2017-01-12 13:42:26

Audio
ID                          : 2
Format                      : AAC
Format/Info                 : Advanced Audio Codec
Format profile              : LC
Codec ID                    : 40
Duration                    : 1 h 59 min
Bit rate mode               : Variable
Bit rate                    : 96.0 kb/s
Maximum bit rate            : 115 kb/s
Channel(s)                  : 2 channels
Channel positions           : Front: L R
Sampling rate               : 48.0 kHz
Frame rate                  : 46.875 FPS (1024 spf)
Compression mode            : Lossy
Stream size                 : 81.8 MiB (12%)
Title                       : 
	La.La.Land.2016.HDCAM.NEW-AUDIO.DE-WATERMARKED.700MB.x264-Cat.aac
Encoded date                : UTC 2017-01-12 13:42:22
Tagged date                 : UTC 2017-01-12 13:42:26

--------------------------------------------------------------------------------