Login or Register

NFO File

For The.Lion.In.Your.Living.Room.2015.1080p.AMZN.WEB-DL

General
Unique ID                                : 217511355784247537194034131760560088927 (0xA3A329D051256AC8951628063626275F)
Complete name                            : The.Lion.In.Your.Living.Room.2015.1080p.AMZN.WEB-DL.DD+2.0.H.264-monkee.mkv
Format                                   : Matroska
Format version                           : Version 4 / Version 2
File size                                : 3.62 GiB
Duration                                 : 50mn 51s
Overall bit rate mode                    : Variable
Overall bit rate                         : 10.2 Mbps
Encoded date                             : UTC 2017-07-29 05:45:06
Writing application                      : mkvmerge v13.0.0 ('The Juggler') 64bit
Writing library                          : libebml v1.3.4 + libmatroska v1.4.5
DURATION                                 : 00:49:54.080000000
NUMBER_OF_FRAMES                         : 665
NUMBER_OF_BYTES                          : 35432
_STATISTICS_WRITING_APP                  : mkvmerge v13.0.0 ('The Juggler') 64bit
_STATISTICS_WRITING_DATE_UTC             : 2017-07-29 05:45:06
_STATISTICS_TAGS                         : BPS DURATION NUMBER_OF_FRAMES NUMBER_OF_BYTES

Video
ID                                       : 1
Format                                   : AVC
Format/Info                              : Advanced Video Codec
Format profile                           : [email protected]
Format settings, CABAC                   : Yes
Format settings, ReFrames                : 4 frames
Codec ID                                 : V_MPEG4/ISO/AVC
Duration                                 : 50mn 51s
Bit rate mode                            : Variable
Bit rate                                 : 9 754 Kbps
Maximum bit rate                         : 15.0 Mbps
Width                                    : 1 920 pixels
Height                                   : 1 080 pixels
Display aspect ratio                     : 16:9
Frame rate mode                          : Constant
Frame rate                               : 25.000 fps
Color space                              : YUV
Chroma subsampling                       : 4:2:0
Bit depth                                : 8 bits
Scan type                                : Progressive
Bits/(Pixel*Frame)                       : 0.188
Stream size                              : 3.46 GiB (96%)
Default                                  : Yes
Forced                                   : No
Color primaries                          : BT.709
Transfer characteristics                 : BT.709
Matrix coefficients                      : BT.709

Audio
ID                                       : 2
Format                                   : E-AC-3
Format/Info                              : Audio Coding 3
Format settings, Endianness              : Big
Codec ID                                 : A_EAC3
Duration                                 : 50mn 51s
Bit rate mode                            : Constant
Bit rate                                 : 224 Kbps
Channel(s)                               : 2 channels
Channel positions                        : Front: L R
Sampling rate                            : 48.0 KHz
Compression mode                         : Lossy
Stream size                              : 81.5 MiB (2%)
Language                                 : English
Default                                  : Yes
Forced                                   : No

Text
ID                                       : 3
Format                                   : UTF-8
Codec ID                                 : S_TEXT/UTF8
Codec ID/Info                            : UTF-8 Plain Text
Language                                 : English
Default                                  : No
Forced                                   : No