Login or Register

NFO File

For La.La.Land.2016.DVDScr.XVID.AC3.HQ.Hive-CM8

Thx Hive

CM8 Doing It Right The First Time 

Source: DVD-R9 Thanks to DRs

Notes:
Finally first quality release, we do think this is a hot title and we decided to share it 
with the public

Encode:
fixed brightness,contrast,rgb and added sharpness.
removed all watermarks from video and audio, safety first.
enjoy

Video: 720x288 @bitrate 1600 2pass
Audio: English AC3 5.1

imdb: tt3783958

General
Complete name                  : La.La.Land.2016.DVDScr.XVID.AC3.HQ.Hive-CM8.avi
Format                         : AVI
Format/Info                    : Audio Video Interleave
File size                      : 1.63 GiB
Duration                       : 2h 7mn
Overall bit rate               : 1 825 Kbps
Writing application            : Nandub v1.0rc2
Writing library                : Nandub build 1853/release

Video
ID                             : 0
Format                         : MPEG-4 Visual
Format profile                 : Advanced [email protected]
Format settings, BVOP          : 2
Format settings, QPel          : Yes
Format settings, GMC           : No warppoints
Format settings, Matrix        : Default (H.263)
Muxing mode                    : Packed bitstream
Codec ID                       : XVID
Codec ID/Hint                  : XviD
Duration                       : 2h 7mn
Bit rate                       : 1 559 Kbps
Width                          : 720 pixels
Height                         : 288 pixels
Display aspect ratio           : 2.500
Frame rate                     : 23.976 fps
Color space                    : YUV
Chroma subsampling             : 4:2:0
Bit depth                      : 8 bits
Scan type                      : Progressive
Compression mode               : Lossy
Bits/(Pixel*Frame)             : 0.314
Stream size                    : 1.39 GiB (85%)
Writing library                : XviD 1.2.1 (UTC 2008-12-04)

Audio
ID                             : 1
Format                         : AC-3
Format/Info                    : Audio Coding 3
Mode extension                 : CM (complete main)
Format settings, Endianness    : Big
Codec ID                       : 2000
Duration                       : 2h 7mn
Bit rate mode                  : Constant
Bit rate                       : 256 Kbps
Channel(s)                     : 6 channels
Channel positions              : Front: L C R, Side: L R, LFE
Sampling rate                  : 48.0 KHz
Bit depth                      : 16 bits
Compression mode               : Lossy
Delay relative to video        : 8ms
Stream size                    : 234 MiB (14%)
Alignment                      : Split accross interleaves
Interleave, duration           : 42 ms (1.00 video frame)
Interleave, preload duration   : 500 ms




Screens 

[img]http://i.imgur.com/3FdRLF3.png[/img]
[img]http://i.imgur.com/LnPDlGD.png[/img]
[img]http://i.imgur.com/9riKnTP.png[/img]
[img]http://i.imgur.com/GnvlTbc.png[/img]
[img]http://i.imgur.com/DfxQoGX.png[/img]


Plot

A jazz pianist falls for an aspiring actress in Los Angeles.


Cast overview, first billed only: 

Ryan Gosling	...	Sebastian
Emma Stone	...	Mia
AmiƩe Conn	...	Famous Actress
Terry Walters	...	Linda (Coffee Shop Manager)
Thom Shelton	...	Coffee Spiller
Cinda Adams	...	Casting Director (First Audition)
Callie Hernandez...	Tracy
Jessica Rothe	...	Alexis
Sonoya Mizuno	...	Caitlin
Rosemarie DeWitt...	Laura
J.K. Simmons	...	Bill
Claudine Claudio...	Karen (Waitress)
Jason Fuchs	...	Carlo
D.A. Wallach	...	'80's Singer
Trevor Lissauer	...	Valet



LOOKING FOR SCREENER GUYS msg us [email protected]

COME FIND US WE DONT BITE[/center]