Login or Register

NFO File

For Bleed.for.This.2016.1080p.WEB-DL.DD5.1.H264-FGT

****************** Insert by Poster (not in original NFO) ******************

It's been a pleasure uploading to Usenet over the past 2 & a half years.

Life has kicked in (going back to school) & therefore this will be my
last day of uploading.

SomeRandomGuy (my other nick) will also cease uploading after clearing a
backlog over the next couple of days.

Thanks to everyone who downloaded my posts & all the best for the future.

A big shout out to all my friends at UN.

sharingiscaring (aka jello).

*****************************************************************************

http://www.imdb.com/title/tt1620935/

General           : Bleed.for.This.2016.1080p.WEB-DL.DD5.1.H264-FGT.mkv
Format            : Matroska at 4 982 kb/s
Length            : 4.07 GiB for 1 h 57 min 4 s 32 ms

Video #0          : AVC at 4 499 kb/s
Aspect            : 1914 x 798 (2.398) at 23.976 fps

Audio #0          : AC-3 at 384 kb/s
Infos             : 6 channels, 48.0 kHz
Language          : English

Subtitles         : English (muxed optional, srt file)


[URL=http://imagecurl.com/viewer.php?file=40163568017908383876.png][IMG]http://imagecurl.com/images/40163568017908383876_thumb.png[/IMG][/URL]
[URL=http://imagecurl.com/viewer.php?file=82590684292327047804.png][IMG]http://imagecurl.com/images/82590684292327047804_thumb.png[/IMG][/URL]
[URL=http://imagecurl.com/viewer.php?file=04382180891920963333.png][IMG]http://imagecurl.com/images/04382180891920963333_thumb.png[/IMG][/URL]
[URL=http://imagecurl.com/viewer.php?file=45516608474582247632.png][IMG]http://imagecurl.com/images/45516608474582247632_thumb.png[/IMG][/URL]
[URL=http://imagecurl.com/viewer.php?file=97406037536989697650.png][IMG]http://imagecurl.com/images/97406037536989697650_thumb.png[/IMG][/URL]
[URL=http://imagecurl.com/viewer.php?file=18777682662496995548.png][IMG]http://imagecurl.com/images/18777682662496995548_thumb.png[/IMG][/URL]



[mediainfo]
Video
ID                                       : 1
Format                                   : AVC
Format/Info                              : Advanced Video Codec
Format profile                           : [email protected]
Format settings, CABAC                   : Yes
Format settings, ReFrames                : 5 frames
Codec ID                                 : V_MPEG4/ISO/AVC
Duration                                 : 1h 57mn
Bit rate                                 : 4 499 Kbps
Width                                    : 1 914 pixels
Height                                   : 798 pixels
Display aspect ratio                     : 2.40:1
Frame rate mode                          : Constant
Frame rate                               : 23.976 fps
Color space                              : YUV
Chroma subsampling                       : 4:2:0
Bit depth                                : 8 bits
Scan type                                : Progressive
Bits/(Pixel*Frame)                       : 0.123
Stream size                              : 3.68 GiB (90%)
Title                                    : Bleed.for.This.2016.1080p.WEB-DL.DD5.1.H264-FGT
Language                                 : English
Default                                  : Yes
Forced                                   : No
Color range                              : Limited
Color primaries                          : BT.709
Transfer characteristics                 : BT.709
Matrix coefficients                      : BT.709

Audio
ID                                       : 2
Format                                   : AC-3
Format/Info                              : Audio Coding 3
Mode extension                           : CM (complete main)
Format settings, Endianness              : Big
Codec ID                                 : A_AC3
Duration                                 : 1h 57mn
Bit rate mode                            : Constant
Bit rate                                 : 384 Kbps
Channel(s)                               : 6 channels
Channel positions                        : Front: L C R, Side: L R, LFE
Sampling rate                            : 48.0 KHz
Frame rate                               : 31.250 fps (1536 spf)
Compression mode                         : Lossy
Stream size                              : 322 MiB (8%)
Title                                    : Bleed.for.This.2016.1080p.WEB-DL.DD5.1.H264-FGT
Language                                 : English
Default                                  : Yes
Forced                                   : No

Text
ID                                       : 3
Format                                   : UTF-8
Codec ID                                 : S_TEXT/UTF8
Codec ID/Info                            : UTF-8 Plain Text
Language                                 : English
Default                                  : Yes
Forced                                   : No

Menu
00:00:00.000                             : en:1
00:05:15.440                             : en:2
00:10:27.919                             : en:3
00:15:02.944                             : en:4
00:20:59.675                             : en:5
00:26:33.216                             : en:6
00:33:34.512                             : en:7
00:41:23.063                             : en:8
00:49:26.171                             : en:9
00:54:05.325                             : en:10
00:58:47.690                             : en:11
01:03:31.932                             : en:12
01:10:15.460                             : en:13
01:14:15.908                             : en:14
01:20:24.985                             : en:15
01:25:28.038                             : en:16
01:31:46.583                             : en:17
01:37:04.067                             : en:18
01:44:25.425                             : en:19
01:50:25.868                             : en:20



[/mediainfo]