Login or Register

NFO File

For The.Legend.Of.Zorro.2005.FRENCH.BRRip.x264-GHZ

//   ___         __        __    __   __   __ _____ __   __   __    __   __   _____     //
//  |   | |   | |     |   |     |  | |  | |  |  |  |  | |  | |     |    |  | |  |    |  //
//  |   | |   | |     |   |     |  | |  | |  |  |  |  | |    |     |    |  | |  |    |  //
//  |   | |   | |_    |   |_    |__| |__| |__|  |  |__| | _  |_    |__  |  | |  |    |  //
//  |   | |   | |     |   |     |    |  | ||    |  |  | |  | |        | |  | |  |    |  //
//  |   | |   | |     |   |     |    |  | | |   |  |  | |  | |        | |  | |  |    |  //
//  |___| |___| |__   |__ |__   |    |  | |  |  |  |  | |__| |__    __| |__| |  |    o  //
//      |                                                                               //
//                                                                                   GHZ//
//////////////////////////////////////////////////////////////////////////////////////////







General
Unique ID                   : 235873793569503158111992453890596874057 (0xB173A3E502AC05C1806F81445F172749)
Complete name               : The.Legend.Of.Zorro.2005.FRENCH.BRRip.x264-GHZ
Format                      : Matroska
Format version              : Version 4
File size                   : 1.06 GiB
Duration                    : 2 h 10 min
Overall bit rate            : 1 167 kb/s
Encoded date                : UTC 2018-11-12 09:49:53 / UTC 2018-11-12T00:44:07Z
Writing application         : mkvmerge v9.3.1 ('Mask Machine') 64bit
Writing library             : libebml v1.3.4 + libmatroska v1.4.5 / Lavf57.7.2

Video
ID                          : 1
Format                      : AVC
Format/Info                 : Advanced Video Codec
Format profile              : [email protected]
Format settings             : CABAC / 8 Ref Frames
Format settings, CABAC      : Yes
Format settings, ReFrames   : 8 frames
Codec ID                    : V_MPEG4/ISO/AVC
Duration                    : 2 h 10 min
Bit rate                    : 1 004 kb/s
Width                       : 720 pixels
Height                      : 306 pixels
Display aspect ratio        : 2.35:1
Frame rate mode             : Constant
Frame rate                  : 23.976 (24000/1001) FPS
Color space                 : YUV
Chroma subsampling          : 4:2:0
Bit depth                   : 8 bits
Scan type                   : Progressive
Bits/(Pixel*Frame)          : 0.190
Stream size                 : 937 MiB (86%)
Writing library             : x264 core 148 r2708 86b7198
Encoding settings           : cabac=1 / ref=8 / deblock=1:-2:-2 / analyse=0x3:0x133 / me=umh / subme=9 / psy=1 / psy_rd=1.00:0.00 / mixed_ref=1 / me_range=24 / chroma_me=1 / trellis=2 / 8x8dct=1 / cqm=0 / deadzone=21,11 / fast_pskip=0 / chroma_qp_offset=-2 / threads=6 / lookahead_threads=1 / sliced_threads=0 / nr=0 / decimate=1 / interlaced=0 / bluray_compat=0 / constrained_intra=0 / bframes=5 / b_pyramid=2 / b_adapt=2 / b_bias=0 / direct=3 / weightb=1 / open_gop=0 / weightp=2 / keyint=240 / keyint_min=24 / scenecut=40 / intra_refresh=0 / rc_lookahead=50 / rc=crf / mbtree=1 / crf=18.0 / qcomp=0.60 / qpmin=0 / qpmax=69 / qpstep=4 / ip_ratio=1.40 / aq=1:1.00
Default                     : Yes
Forced                      : No
Color range                 : Limited
Color primaries             : BT.709
Transfer characteristics    : BT.709
Matrix coefficients         : BT.709

Audio
ID                          : 2
Format                      : AAC LC
Format/Info                 : Advanced Audio Codec Low Complexity
Codec ID                    : A_AAC-2
Duration                    : 2 h 10 min
Bit rate                    : 160 kb/s
Channel(s)                  : 2 channels
Channel layout              : L R
Sampling rate               : 48.0 kHz
Frame rate                  : 46.875 FPS (1024 SPF)
Compression mode            : Lossy
Delay relative to video     : -21 ms
Stream size                 : 150 MiB (14%)
Title                       : Stereo
Language                    : French
Default                     : Yes
Forced                      : No

Text
ID                          : 3
Format                      : ASS
Codec ID                    : S_TEXT/ASS
Codec ID/Info               : Advanced Sub Station Alpha
Duration                    : 21 min 27 s
Bit rate                    : 2 b/s
Count of elements           : 6
Compression mode            : Lossless
Stream size                 : 374 Bytes (0%)
Default                     : Yes
Forced                      : Yes

Menu
00:00:00.000                : :Chapter 1
00:06:37.647                : :Chapter 2
00:13:19.674                : :Chapter 3
00:22:59.420                : :Chapter 4
00:29:41.613                : :Chapter 5
00:38:02.989                : :Chapter 6
00:45:25.139                : :Chapter 7
00:54:12.082                : :Chapter 8
01:02:08.725                : :Chapter 9
01:10:41.988                : :Chapter 10
01:19:41.026                : :Chapter 11
01:25:30.876                : :Chapter 12
01:30:43.605                : :Chapter 13
01:36:21.526                : :Chapter 14
01:43:26.575                : :Chapter 15
01:49:48.582                : :Chapter 16






Source : The.Legend.Of.Zorro.2005.Multi.1080p.Bluray.x264-NEO