Login or Register

NFO File

For P51QM9UTU406196.part16

greg-pappy-boyington
12/07/2019

http://www.allocine.fr/film/fichefilm_gen_cfilm=6007.html
https://www.themoviedb.org/movie/14168-3-10-to-yuma

================================================================================
*                        Fichiers contenus dans le post                        *
================================================================================
3h10.Pour.Yuma.1957.mp4                                                 01:28:10
================================================================================
*Duree totale du post .........: 01:28:10                                      *
*Taille totale du post ........: 1.27 Go                                       *
================================================================================

================================================================================
*                           3h10.Pour.Yuma.1957.mp4                            *
================================================================================
*Format                        : MPEG-4                                        *
*Format profile                : Base Media / Version 2                        *
*Codec ID                      : mp42                                          *
*File size                     : 1.27 GiB                                      *
*Duration                      : 1h 28mn                                       *
*Overall bit rate mode         : Variable                                      *
*Overall bit rate              : 2 070 Kbps                                    *
*Movie name                    : Enregistrement manuel                         *
*Encoded date                  : UTC 2036-02-06 06:28:16                       *
*Tagged date                   : UTC 2036-02-06 06:28:16                       *
*Writing application           : HandBrake 0.10.2 2015060900                   *
*=================================== Video ====================================*
*ID                            : 1                                             *
*Format                        : AVC                                           *
*Format/Info                   : Advanced Video Codec                          *
*Format profile                : [email protected]                                     *
*Format settings, CABAC        : Yes                                           *
*Format settings, ReFrames     : 4 frames                                      *
*Codec ID                      : avc1                                          *
*Codec ID/Info                 : Advanced Video Coding                         *
*Duration                      : 1h 28mn                                       *
*Bit rate                      : 1 900 Kbps                                    *
*Width                         : 1 280 pixels                                  *
*Height                        : 720 pixels                                    *
*Display aspect ratio          : 16:9                                          *
*Frame rate mode               : Variable                                      *
*Frame rate                    : 25.000 fps                                    *
*Minimum frame rate            : 0.843 fps                                     *
*Maximum frame rate            : 25.000 fps                                    *
*Color space                   : YUV                                           *
*Chroma subsampling            : 4:2:0                                         *
*Bit depth                     : 8 bits                                        *
*Scan type                     : Progressive                                   *
*Bits/(Pixel*Frame)            : 0.082                                         *
*Stream size                   : 1.18 GiB (92%)                                *
*Writing library               : x264 core 142 r2479 dd79a61                   *
*Encoded date                  : UTC 2036-02-06 06:28:16                       *
*Tagged date                   : UTC 2036-02-06 06:28:16                       *
*Color primaries               : BT.709-5, BT.1361, IEC 61966-2-4, SMPTE RP177 *
*Transfer characteristics      : BT.709-5, BT.1361                             *
*Matrix coefficients           : BT.709-5, BT.1361, IEC 61966-2-4 709, SMPTE RP*
*================================== Audio #1 ==================================*
*ID                            : 2                                             *
*Format                        : MPEG Audio                                    *
*Format version                : Version 1                                     *
*Format profile                : Layer 3                                       *
*Codec ID                      : 6B                                            *
*Duration                      : 1h 28mn                                       *
*Bit rate mode                 : Variable                                      *
*Bit rate                      : 151 Kbps                                      *
*Channel(s)                    : 2 channels                                    *
*Sampling rate                 : 48.0 KHz                                      *
*Compression mode              : Lossy                                         *
*Delay relative to video       : -1mn 50s                                      *
*Stream size                   : 95.5 MiB (7%)                                 *
*Title                         : Stereo                                        *
*Language                      : French                                        *
*Encoded date                  : UTC 2036-02-06 06:28:16                       *
*Tagged date                   : UTC 2036-02-06 06:28:16                       *

================================================================================
*                           INFORMATION SUR LE POST                            *
================================================================================
*Taille des donnees sans par2..: 1.27 Go                                       *
*Nombre de rar.................: 28                                            *
*Taille des rar................: 47.97 Mo                                      *
*Par2..........................: 9%                                            *
*Nombre de bloc de recup.......: 321                                           *
*Taille d'un bloc..............: 375.00 Ko                                     *
*Nom a rechercher..............: P51QM9UTU406196                               *
*Posteur.......................: [email protected]                             *
*Groupes.......................: a.b.highspeed                                 *
https://www.nzbnewzfrance.com/