Login or Register

NFO File

For Unplanned.2019.m720p

Unplanned.2019.m720p

https://www.imdb.com/title/tt9024106/
Rating: 6.2/10 - 7,590 votes

All Abby Johnson ever wanted to do was help women. As one of the youngest Planned 
Parenthood clinic directors in the nation, she believed in a woman's right ...

Unplanned.2019.720p.BluRay.x264-[YTS.LT].mp4
Format                                   : MPEG-4
Format profile                           : Base Media
Codec ID                                 : isom
File size                                : 874 MiB
Duration                                 : 1h 49mn
Overall bit rate                         : 1 118 Kbps
Writing application                      : Lavf58.2.103

Video
ID                                       : 1
Format                                   : AVC
Format/Info                              : Advanced Video Codec
Format profile                           : [email protected]
Format settings, CABAC                   : Yes
Format settings, ReFrames                : 4 frames
Codec ID                                 : avc1
Codec ID/Info                            : Advanced Video Coding
Duration                                 : 1h 49mn
Bit rate                                 : 1 000 Kbps
Width                                    : 1 280 pixels
Height                                   : 534 pixels
Display aspect ratio                     : 2.40:1
Original display aspect ratio            : 2.40:1
Frame rate mode                          : Constant
Frame rate                               : 23.976 fps
Color space                              : YUV
Chroma subsampling                       : 4:2:0
Bit depth                                : 8 bits
Scan type                                : Progressive
Bits/(Pixel*Frame)                       : 0.061
Stream size                              : 781 MiB (89%)
Writing library                          : x264 core 152

Audio
ID                                       : 2
Format                                   : AAC
Format/Info                              : Advanced Audio Codec
Format profile                           : LC
Codec ID                                 : 40
Duration                                 : 1h 49mn
Bit rate mode                            : Constant
Bit rate                                 : 111 Kbps
Channel(s)                               : 2 channels
Channel positions                        : Front: L R
Sampling rate                            : 48.0 KHz
Compression mode                         : Lossy
Stream size                              : 87.1 MiB (10%)